osu file format v14

[General]
AudioFilename: Hurts - Illuminated ddd.mp3
AudioLeadIn: 1500
PreviewTime: 42712
Countdown: 0
SampleSet: Soft
StackLeniency: 0.7
Mode: 0
LetterboxInBreaks: 0
WidescreenStoryboard: 0

[Editor]
Bookmarks: 35220,72544
DistanceSpacing: 1.1
BeatDivisor: 4
GridSize: 4
TimelineZoom: 1

[Metadata]
Title:Illuminated
TitleUnicode:Illuminated
Artist:Hurts
ArtistUnicode:Hurts
Creator:-Bakari-
Version:Easy
Source:
Tags:Synthpop The Nexus Jonas Quant AlexaBM
BeatmapID:432997
BeatmapSetID:117749

[Difficulty]
HPDrainRate:2
CircleSize:3
OverallDifficulty:2
ApproachRate:3
SliderMultiplier:0.8
SliderTickRate:1

[Events]
//Background and Video events
0,0,"6909066175_6152e14783_b.jpg.jpg",0,0
//Break Periods
2,37575,40042
2,64042,65268
2,88042,90708
//Storyboard Layer 0 (Background)
//Storyboard Layer 1 (Fail)
//Storyboard Layer 2 (Pass)
//Storyboard Layer 3 (Foreground)
//Storyboard Sound Samples
//Background Colour Transformations
3,100,163,162,255

[TimingPoints]
16042,666.666666666667,4,2,2,50,1,0
16125,-100,4,2,1,40,0,0
17375,-100,4,2,2,40,0,0
17458,-100,4,2,1,40,0,0
20042,-100,4,2,2,40,0,0
20125,-100,4,2,1,40,0,0
22708,-100,4,2,2,40,0,0
22792,-100,4,2,1,40,0,0
25375,-100,4,2,2,40,0,0
25458,-100,4,2,1,40,0,0
28042,-100,4,2,2,40,0,0
28125,-100,4,2,1,40,0,0
30708,-100,4,2,2,40,0,0
30792,-100,4,2,1,40,0,0
33375,-100,4,2,2,40,0,0
33458,-100,4,2,1,40,0,0
36042,-100,4,2,2,40,0,0
36125,-100,4,2,1,40,0,0
37375,-100,4,2,1,35,0,0
40042,-100,4,2,2,20,0,0
42708,-100,4,2,1,55,0,1
44042,-100,4,2,2,55,0,1
44125,-100,4,2,1,55,0,1
45042,-100,4,2,1,35,0,1
45125,-100,4,2,1,55,0,1
46708,-100,4,2,2,55,0,1
46792,-100,4,2,1,55,0,1
47708,-100,4,2,1,35,0,1
47792,-100,4,2,1,55,0,1
48708,-100,4,2,3,55,0,1
48792,-100,4,2,1,55,0,1
49375,-100,4,2,2,55,0,1
49458,-100,4,2,1,55,0,1
50042,-100,4,2,3,55,0,1
50458,-100,4,2,1,55,0,1
50708,-100,4,2,1,25,0,1
50792,-100,4,2,1,55,0,1
52042,-100,4,2,2,55,0,1
52125,-100,4,2,1,55,0,1
54708,-100,4,2,2,55,0,1
54792,-100,4,2,1,55,0,1
55375,-100,4,2,3,55,0,1
55708,-100,4,2,1,35,0,1
55792,-100,4,2,1,55,0,1
57375,-100,4,2,2,55,0,1
57458,-100,4,2,1,55,0,1
58375,-100,4,2,1,35,0,1
58458,-100,4,2,1,55,0,1
59042,-100,4,2,3,55,0,1
59375,-100,4,2,1,55,0,1
60042,-100,4,2,2,55,0,1
60125,-100,4,2,1,55,0,1
60708,-100,4,2,3,55,0,1
61042,-100,4,2,1,55,0,1
61375,-100,4,2,1,25,0,1
61458,-100,4,2,1,55,0,1
62708,-100,4,2,2,55,0,1
62792,-100,4,2,1,55,0,1
64042,-100,4,2,1,35,0,0
66792,-100,4,2,1,30,0,0
68042,-100,4,2,2,30,0,0
68125,-100,4,2,1,30,0,0
70708,-100,4,2,2,30,0,0
70792,-100,4,2,1,30,0,0
73375,-100,4,2,2,30,0,0
73458,-100,4,2,1,30,0,0
75042,-100,4,2,3,30,0,0
75125,-100,4,2,1,30,0,0
76042,-100,4,2,2,30,0,0
76125,-100,4,2,1,30,0,0
77708,-100,4,2,3,30,0,0
77792,-100,4,2,1,30,0,0
78708,-100,4,2,2,30,0,0
78792,-100,4,2,1,30,0,0
81375,-100,4,2,2,30,0,0
81459,-100,4,2,1,30,0,0
83042,-100,4,2,3,30,0,0
83125,-100,4,2,1,30,0,0
84042,-100,4,2,2,30,0,0
84125,-100,4,2,1,30,0,0
86708,-100,4,2,2,40,0,0
86792,-100,4,2,1,30,0,0
93375,-100,4,2,1,50,0,1
94708,-100,4,2,2,50,0,1
94792,-100,4,2,1,50,0,1
95708,-100,4,2,1,30,0,1
95792,-100,4,2,1,50,0,1
97375,-100,4,2,2,50,0,1
97458,-100,4,2,1,50,0,1
99042,-100,4,2,3,50,0,1
99375,-100,4,2,3,50,0,1
99458,-100,4,2,1,50,0,1
100042,-100,4,2,2,50,0,1
100125,-100,4,2,1,50,0,1
100708,-100,4,2,3,50,0,1
101125,-100,4,2,1,50,0,1
101375,-100,4,2,1,20,0,1
101458,-100,4,2,1,50,0,1
102708,-100,4,2,2,50,0,1
102792,-100,4,2,1,50,0,1
105375,-100,4,2,2,50,0,1
105458,-100,4,2,1,50,0,1
106375,-100,4,2,1,30,0,1
106458,-100,4,2,1,50,0,1
108042,-100,4,2,2,50,0,1
108125,-100,4,2,1,50,0,1
109042,-100,4,2,1,30,0,1
109125,-100,4,2,1,50,0,1
109708,-100,4,2,3,50,0,1
110042,-100,4,2,3,50,0,1
110125,-100,4,2,1,50,0,1
110708,-100,4,2,2,50,0,1
110792,-100,4,2,1,50,0,1
111375,-100,4,2,3,50,0,1
111792,-100,4,2,1,50,0,1
112042,-100,4,2,1,20,0,1
112125,-100,4,2,1,50,0,1
113375,-100,4,2,2,50,0,1
113458,-100,4,2,1,50,0,1
114708,-100,4,2,1,40,0,0
115042,-100,4,2,3,50,0,0
115125,-100,4,2,1,40,0,0
116042,-100,4,2,2,40,0,0
116125,-100,4,2,1,40,0,0
117042,-100,4,2,1,35,0,0
117125,-100,4,2,1,40,0,0
118708,-100,4,2,2,40,0,0
118792,-100,4,2,1,40,0,0
119708,-100,4,2,1,20,0,0
119792,-100,4,2,1,40,0,0
120375,-100,4,2,3,40,0,0
120458,-100,4,2,1,40,0,0
120708,-100,4,2,1,40,0,0
120875,-100,4,2,1,40,0,0
121375,-100,4,2,2,40,0,0
121458,-100,4,2,1,40,0,0
122375,-100,4,2,1,35,0,0
122458,-100,4,2,1,40,0,0
124042,-100,4,2,2,40,0,0
124125,-100,4,2,1,40,0,0
125042,-100,4,2,1,20,0,0
125125,-100,4,2,1,40,0,0
125708,-100,4,2,3,40,0,0
126125,-100,4,2,1,40,0,0
126708,-100,4,2,2,40,0,0
126792,-100,4,2,1,40,0,0
129375,-100,4,2,2,40,0,0
129458,-100,4,2,1,40,0,0
131042,-100,4,2,3,40,0,0
131458,-100,4,2,1,40,0,0
132042,-100,4,2,2,40,0,0
132125,-100,4,2,1,40,0,0
133042,-100,4,2,1,20,0,0
133125,-100,4,2,1,40,0,0
133708,-100,4,2,3,40,0,0
134125,-100,4,2,1,40,0,0
134708,-100,4,2,2,40,0,0
134792,-100,4,2,1,40,0,0
136042,-100,4,2,1,60,0,1
136375,-100,4,2,3,60,0,1
136458,-100,4,2,1,60,0,1
137375,-100,4,2,2,60,0,1
137458,-100,4,2,1,60,0,1
138375,-100,4,2,3,60,0,1
138458,-100,4,2,1,60,0,1
140042,-100,4,2,2,60,0,1
140125,-100,4,2,1,60,0,1
141042,-100,4,2,1,40,0,1
141125,-100,4,2,1,60,0,1
141708,-100,4,2,3,60,0,1
142042,-100,4,2,3,60,0,1
142125,-100,4,2,1,60,0,1
142708,-100,4,2,2,60,0,1
142792,-100,4,2,1,60,0,1
143375,-100,4,2,3,60,0,1
143792,-100,4,2,1,60,0,1
144042,-100,4,2,1,40,0,1
144125,-100,4,2,1,60,0,1
145375,-100,4,2,2,60,0,1
145458,-100,4,2,1,60,0,1
147042,-100,4,2,3,60,0,1
147125,-100,4,2,1,60,0,1
148042,-100,4,2,2,60,0,1
148125,-100,4,2,1,60,0,1
149042,-100,4,2,1,40,0,1
149125,-100,4,2,1,60,0,1
150708,-100,4,2,2,60,0,1
150792,-100,4,2,1,60,0,1
152375,-100,4,2,3,60,0,1
152792,-100,4,2,1,60,0,1
153375,-100,4,2,2,60,0,1
153458,-100,4,2,1,60,0,1
154042,-100,4,2,3,60,0,1
154458,-100,4,2,1,60,0,1
154708,-100,4,2,1,40,0,1
154792,-100,4,2,1,60,0,1
156042,-100,4,2,2,60,0,1
156125,-100,4,2,1,60,0,1
157375,-100,4,2,1,50,0,0
158708,-100,4,2,2,50,0,0
158792,-100,4,2,1,50,0,0
159375,-100,4,2,3,50,0,0
159458,-100,4,2,1,50,0,0
159708,-100,4,2,1,30,0,0
159792,-100,4,2,1,50,0,0
160042,-100,4,2,1,50,0,0
160375,-100,4,2,3,50,0,0
160458,-100,4,2,1,50,0,0
161375,-100,4,2,2,50,0,0
161458,-100,4,2,1,50,0,0
163042,-100,4,2,3,50,0,0
163458,-100,4,2,1,50,0,0
164042,-100,4,2,2,50,0,0
164125,-100,4,2,1,50,0,0
164708,-100,4,2,3,50,0,0
165125,-100,4,2,1,50,0,0
165375,-100,4,2,1,30,0,0
165458,-100,4,2,1,50,0,0
166708,-100,4,2,2,50,0,0
166792,-100,4,2,1,50,0,0
169375,-100,4,2,2,50,0,0
169458,-100,4,2,1,50,0,0
170375,-100,4,2,1,30,0,0
170458,-100,4,2,1,50,0,0
172042,-100,4,2,2,50,0,0
172125,-100,4,2,1,50,0,0
173042,-100,4,2,1,30,0,0
173125,-100,4,2,1,50,0,0
173708,-100,4,2,3,50,0,0
174125,-100,4,2,1,50,0,0
174708,-100,4,2,2,50,0,0
174792,-100,4,2,1,50,0,0
175708,-100,4,2,1,30,0,0
175792,-100,4,2,1,50,0,0
176375,-100,4,2,3,50,0,0
176458,-100,4,2,1,50,0,0
177375,-100,4,2,2,50,0,0
177458,-100,4,2,1,50,0,0
178708,-100,4,2,1,50,0,0
179042,-100,4,2,1,40,0,0
179375,-100,4,2,1,30,0,0
179708,-100,4,2,1,20,0,0
180042,-100,4,2,1,10,0,0
180708,-100,4,2,1,5,0,0

[Colours]
Combo1 : 213,210,223
Combo2 : 206,214,190

[HitObjects]
60,284,16041,6,0,L|68:192,1,80,8|8,0:0|0:0,0:0:0:0:
108,124,17375,2,0,B|134:103|166:97|196:104,2,80,10|0|8,0:0|0:0|0:0,0:0:0:0:
164,192,19375,1,0,0:0:0:0:
224,256,20041,2,0,B|198:278|166:284|136:276,1,80,10|0,0:0|0:0,0:0:0:0:
80,224,21375,5,8,0:0:0:0:
120,148,22041,2,0,L|116:60,2,80,0|0|0,0:0|0:0|0:0,0:0:0:0:
176,216,24041,2,0,B|225:248|287:241|327:205,1,160,8|10,0:0|0:0,0:0:0:0:
392,148,26041,1,0,0:0:0:0:
448,216,26708,6,0,L|440:308,1,80,8|0,0:0|0:0,0:0:0:0:
380,360,28041,2,0,B|328:384|267:355|252:300,1,160,10|8,0:0|0:0,0:0:0:0:
236,216,30041,2,0,L|244:128,2,80,0|10|0,0:0|0:0|0:0,0:0:0:0:
180,284,32042,5,4,0:0:0:0:
96,252,32708,1,0,0:0:0:0:
64,172,33375,2,0,B|66:141|79:115|100:96,1,80,10|0,0:0|0:0,0:0:0:0:
176,68,34708,1,8,0:0:0:0:
244,124,35375,2,0,B|273:137|305:131|328:112,2,80,8|2|0,0:0|0:0|0:0,0:0:0:0:
276,40,37375,5,2,0:0:0:0:
100,328,42708,6,0,B|82:302|84:269|100:244,1,80,4|8,0:0|0:0,0:0:0:0:
144,180,44042,2,0,L|152:96,1,80,10|8,0:0|0:0,0:0:0:0:
169,60,45042,1,12,0:0:0:0:
200,28,45375,6,0,B|228:16|258:17|284:28,1,80,4|8,0:0|0:0,0:0:0:0:
336,92,46708,2,0,L|340:176,1,80,10|8,0:0|0:0,0:0:0:0:
328,216,47708,1,12,0:0:0:0:
300,252,48042,2,0,B|236:302|144:292|89:227|84:155,2,280,4|0|8,0:0|0:0|0:0,0:0:0:0:
364,192,53375,5,14,0:0:0:0:
284,160,54042,2,0,L|196:172,1,80,8|10,0:0|0:0,0:0:0:0:
116,168,55375,1,0,0:0:0:0:
112,124,55708,1,12,0:0:0:0:
120,80,56042,2,0,B|139:36|185:12|232:20|263:47,1,160,4|10,0:0|0:0,0:0:0:0:
300,116,58042,2,0,L|296:172,1,40,8|12,0:0|0:0,0:0:0:0:
292,200,58708,6,0,B|314:276|399:317|479:283|511:219,2,280,4|0|8,0:0|0:0|0:0,0:0:0:0:
144,316,66708,6,0,L|140:236,1,80,4|0,0:0|0:0,0:0:0:0:
176,156,68042,2,0,B|201:132|233:123|264:128,1,80,10|0,0:0|0:0,0:0:0:0:
312,184,69375,1,8,0:0:0:0:
384,132,70042,2,0,L|388:44,2,80,0|10|0,0:0|0:0|0:0,0:0:0:0:
452,188,72042,5,0,0:0:0:0:
384,244,72708,1,8,0:0:0:0:
296,228,73375,2,0,B|242:201|178:222|149:271,2,160,10|8|10,0:0|0:0|0:0,0:0:0:0:
360,288,76708,1,0,0:0:0:0:
423,226,77375,6,0,B|443:200|445:166|431:138,1,80,8|0,0:0|0:0,0:0:0:0:
376,84,78708,2,0,B|345:70|311:77|288:99,1,80,10|0,0:0|0:0,0:0:0:0:
256,168,80042,1,8,0:0:0:0:
236,252,80708,2,0,L|250:331,2,80,0|10|0,0:0|0:0|0:0,0:0:0:0:
168,196,82708,6,0,B|134:188|100:192|71:204,1,80,8|0,0:0|0:0,0:0:0:0:
20,256,84042,1,10,0:0:0:0:
9,168,84708,1,0,0:0:0:0:
32,84,85375,1,8,0:0:0:0:
104,136,86042,2,0,B|134:140|162:128|180:108,1,80,0|2,0:0|0:0,0:0:0:0:
199,25,87375,1,0,0:0:0:0:
140,192,93375,6,0,L|132:104,2,80,6|8|10,0:0|0:0|0:0,0:0:0:0:
204,252,95375,1,8,0:0:0:0:
235,220,95708,1,12,0:0:0:0:
268,192,96042,2,0,B|298:177|332:176|360:188,1,80,4|8,0:0|0:0,0:0:0:0:
420,232,97375,1,10,0:0:0:0:
472,160,98042,1,8,0:0:0:0:
428,148,98375,1,8,0:0:0:0:
384,140,98708,6,0,B|310:171|285:270|351:341|426:340,2,280,6|0|8,0:0|0:0|0:0,0:0:0:0:
476,144,104042,5,6,0:0:0:0:
444,60,104708,1,8,0:0:0:0:
356,72,105375,2,0,B|324:80|291:76|263:64,1,80,10|8,0:0|0:0,0:0:0:0:
236,52,106375,1,12,0:0:0:0:
196,32,106708,2,0,B|201:90|187:144|159:189,1,160,4|10,0:0|0:0,0:0:0:0:
80,216,108708,2,0,L|28:208,1,40,8|12,0:0|0:0,0:0:0:0:
8,240,109375,6,0,B|14:288|54:323|103:324|139:301,1,160,6|10,0:0|0:0,0:0:0:0:
260,188,112042,2,0,L|252:104,2,80,6|8|10,0:0|0:0|0:0,0:0:0:0:
304,264,114042,1,8,0:0:0:0:
364,200,114708,6,0,B|385:145|353:85|296:72,1,160,6|10,0:0|0:0,0:0:0:0:
168,188,117375,2,0,B|131:216|119:264|135:307|167:331,1,160,4|10,0:0|0:0,0:0:0:0:
332,280,120042,6,0,B|383:216|370:122|300:69|227:72,2,280,4|12|8,0:0|0:0|0:0,0:0:0:0:
244,276,125375,6,0,B|192:245|172:182|192:129,2,160,4|10|6,0:0|0:0|0:0,0:0:0:0:
416,312,129375,1,10,0:0:0:0:
256,192,130708,12,2,134708,0:0:0:0:
120,148,136042,6,0,B|150:134|183:139|208:156,1,80,6|8,0:0|0:0,0:0:0:0:
232,232,137375,1,10,0:0:0:0:
304,284,138042,1,8,0:0:0:0:
348,276,138375,1,8,0:0:0:0:
388,256,138708,2,0,B|413:241|427:215|428:188,1,80,6|8,0:0|0:0,0:0:0:0:
380,116,140042,2,0,L|284:120,1,80,10|8,0:0|0:0,0:0:0:0:
260,104,141042,1,12,0:0:0:0:
220,88,141375,6,0,B|144:64|63:114|48:201|86:261,2,280,6|0|8,0:0|0:0|0:0,0:0:0:0:
284,148,146708,6,0,L|372:144,1,80,6|8,0:0|0:0,0:0:0:0:
436,196,148042,2,0,B|452:226|444:262|421:284,1,80,10|8,0:0|0:0,0:0:0:0:
396,296,149042,1,12,0:0:0:0:
352,292,149375,1,4,0:0:0:0:
268,260,150042,2,0,L|184:268,2,80,8|10|8,0:0|0:0|0:0,0:0:0:0:
304,236,151708,1,8,0:0:0:0:
328,200,152042,6,0,B|377:134|343:32|241:12|181:63,2,280,6|0|8,0:0|0:0|0:0,0:0:0:0:
264,260,157375,6,0,B|224:276|188:256|188:256|148:236|100:256,1,160,6|10,0:0|0:0,0:0:0:0:
4,120,160042,1,4,0:0:0:0:
160,36,161375,1,10,0:0:0:0:
280,164,162708,6,0,B|346:209|438:187|478:109|461:39,2,280,6|0|8,0:0|0:0|0:0,0:0:0:0:
208,112,168042,6,0,B|196:170|145:209|89:208,1,160,6|10,0:0|0:0,0:0:0:0:
52,36,170708,1,4,0:0:0:0:
224,80,172042,1,10,0:0:0:0:
396,44,173375,6,0,B|416:120|376:172|376:172|328:232|364:312,2,280,4|12|8,0:0|0:0|0:0,0:0:0:0:
256,192,178708,12,0,181375,0:0:0:0:
